ضيفنا الكريم زائر منتدى تسالة
---------------------------------------------------------
حللت أهلاً .. ووطئت سهلاً ..
أهلاً بك بين اخوانك واخواتك
آملين أن تلقى المتعة والفائدة معنا
.:: حيـاك الله ::.

يسعدنا انضمامك لاسرتنا للتسجيل أنقر هنا

STAR TREK TS XVID BDK [4x400MB]

اذهب الى الأسفل

STAR TREK TS XVID BDK [4x400MB]

مُساهمة من طرف tessala في الأحد مايو 10, 2009 3:31 pm

STAR TREK TS XVID BDK



اظغط هنا لمعاينة الموضوع
Spoiler:


***********************************************************************************************
-----------------------------------------------------------------------------------------------
STAR TREK TS XVID BDK
-----------------------------------------------------------------------------------------------
http://www.imdb.com/title/tt0796366/

Release Date:
8 May 2009 (USA)

Genre:
Action | Adventure | Sci-Fi

Tagline:
The future begins.

Plot: A chronicle of the early days of James T. Kirk and his fellow USS Enterprise crew members.


Chris Pine ... James T. Kirk
Zachary Quinto ... Spock
Leonard Nimoy ... Spock Prime
Eric Bana ... Nero
Bruce Greenwood ... Capt. Christopher Pike
Karl Urban ... Dr. Leonard 'Bones' McCoy
Zoe Saldana ... Nyota Uhura
Simon Pegg ... Scotty
John Cho ... Hikaru Sulu
Anton Yelchin ... Pavel Chekov
Ben Cross ... Sarek
Winona Ryder ... Amanda Grayson
Chris Hemsworth ... George Kirk
Jennifer Morrison ... Winona Kirk
Rachel Nichols ... Gaila
---------------------------------------------------------------------------------------------
work done:

i adjusted contrast.luma,gama,saturation,hue also added a sharpener hope you all enjoy.peace!!!
thanks to devise for this audio.really appreciate it guys.

original folder:Zvezdnyj.put.2009.D.TS.ELEKTRI4KA.[uniongang.ru]
audio:Star.Trek.TS.XviD-DEViSE
new folder:STAR TREK TS XVID BDK
sample included

----------------------------------------------------------------------------------------------
Complete name : STAR TREK TS XVID BDKstar trek.avi
Format : AVI
Format/Info : Audio Video Interleave
File size : 1.30 GiB
Duration : 1h 54mn
Overall bit rate : 1 626 Kbps
Writing library : VirtualDub build 28346/release

Video
Format : MPEG-4 Visual
Format profile : Streaming Video@L1
Format settings, BVOP : Yes
Format settings, QPel : No
Format settings, GMC : No warppoints
Format settings, Matrix : Custom
Codec ID : XVID
Codec ID/Hint : XviD
Duration : 1h 54mn
Bit rate : 1 488 Kbps
Width : 704 pixels
Height : 336 pixels
Display aspect ratio : 2.095
Frame rate : 25.000 fps
Resolution : 24 bits
Colorimetry : 4:2:0
Scan type : Progressive
Bits/(Pixel*Frame) : 0.252
Stream size : 1.19 GiB (92%)
Writing library : XviD 1.2.1 (UTC 2008-12-04)

Audio
Format : MPEG Audio
Format version : Version 1
Format profile : Layer 3
Codec ID : 55
Codec ID/Hint : MP3
Duration : 1h 54mn
Bit rate mode : Constant
Bit rate : 128 Kbps
Channel(s) : 2 channels
Sampling rate : 48.0 KHz
Resolution : 16 bits
Stream size : 105 MiB (8%)
Alignment : Split accross interleaves
Interleave, duration : 40 ms (1.00 video frame)
Interleave, preload duration : 500 ms
Writing library : LAME3.98.2

Display aspect ratio : 2.095
Frame rate : 25.000 fps
Resolution : 24 bits
Colorimetry : 4:2:0
Scan type : Progressive
Bits/(Pixel*Frame) : 0.252
Stream size : 1.19 GiB (92%)
Writing library : XviD 1.2.1 (UTC 2008-12-04)

Audio
Format : MPEG Audio
Format version : Version 1
Format profile : Layer 3
Codec ID : 55
Codec ID/Hint : MP3
Duration : 1h 54mn
Bit rate mode : Constant
Bit rate : 128 Kbps
Channel(s) : 2 channels
Sampling rate : 48.0 KHz
Resolution : 16 bits
Stream size : 105 MiB (8%)
Alignment : Split accross interleaves
Interleave, duration : 40 ms (1.00 video frame)
Interleave, preload duration : 500 ms
Writing library : LAME3.98.2

This image has been resized. Click here to view the full image. The original image is sized 704x336.

This image has been resized. Click here to view the full image. The original image is sized 704x336.

This image has been resized. Click here to view the full image. The original image is sized 704x336.

This image has been resized. Click here to view the full image. The original image is sized 704x336.

This image has been resized. Click here to view the full image. The original image is sized 704x336.

This image has been resized. Click here to view the full image. The original image is sized 704x336.

This image has been resized. Click here to view the full image. The original image is sized 704x336.



الكود:
[/b]

[b]   http://www.netload.in/dateiCGdRLKbjHS/st.ts.bdk.674563442390.part1.rar.htm[/b]
[b]http://www.netload.in/dateitSMyLsINAv/st.ts.bdk.674563442390.part2.rar.htm[/b]
[b]http://www.netload.in/datei08Qgeb4bX0/st.ts.bdk.674563442390.part3.rar.htm[/b]
[b]http://www.netload.in/dateiPtd5zkO2pC/st.ts.bdk.674563442390.part4.rar.htm
الكود:

Code:
الكود:
[/b]
[b]   http://hotfile.com/dl/2154404/c8832f0/st.ts.bdk.674563442390.part1.rar.html[/b]
[b]http://hotfile.com/dl/2154490/70e132e/st.ts.bdk.674563442390.part2.rar.html[/b]
[b]http://hotfile.com/dl/2154609/612d61e/st.ts.bdk.674563442390.part3.rar.html[/b]
[b]http://hotfile.com/dl/2154707/d656e88/st.ts.bdk.674563442390.part4.rar.html

_________________
avatar
tessala
المدير العام
المدير العام

آخرمكافآت العضو :
الجنس : ذكر
عدد الرسائل : 1551
العمر : 51
العمل/الترفيه : صاحب الببيت
المزاج : مشغول
تعاليق الادارة : مرفوع من الخدمة
نقاط الشهرة : 5742
السٌّمعَة : 22
تاريخ التسجيل : 03/12/2008

http://tessala.up-with.com

الرجوع الى أعلى الصفحة اذهب الى الأسفل

الرجوع الى أعلى الصفحة

- مواضيع مماثلة

 
صلاحيات هذا المنتدى:
لاتستطيع الرد على المواضيع في هذا المنتدى